osu file format v14

[General]
AudioFilename: 04 - Connect -TV MIX-.mp3
AudioLeadIn: 1500
PreviewTime: 66416
Countdown: 0
SampleSet: Soft
StackLeniency: 0.3
Mode: 0
LetterboxInBreaks: 0
WidescreenStoryboard: 0

[Editor]
DistanceSpacing: 0.8
BeatDivisor: 4
GridSize: 8
TimelineZoom: 0.9999996

[Metadata]
Title:Connect -TV MIX-
TitleUnicode:コネクト -TV MIX-
Artist:ClariS
ArtistUnicode:ClariS
Creator:captin1
Version:Gu's Hard
Source:魔法少女まどか☆マギカ
Tags:Mahou Shoujo Madoka Magika Puella Magi no_gu mmzz karia xinely spectator momochikun kantokun rumia- alice clara
BeatmapID:482899
BeatmapSetID:203567

[Difficulty]
HPDrainRate:6
CircleSize:4
OverallDifficulty:7
ApproachRate:8
SliderMultiplier:1.44
SliderTickRate:1

[Events]
//Background and Video events
0,0,"standard.jpg",0,0
Video,480,"connect.avi",0,0
//Break Periods
//Storyboard Layer 0 (Background)
//Storyboard Layer 1 (Fail)
//Storyboard Layer 2 (Pass)
//Storyboard Layer 3 (Foreground)
//Storyboard Sound Samples

[TimingPoints]
1359,342.857142857143,4,2,1,40,1,0
10787,-200,4,2,1,40,0,0
10959,-200,4,2,1,5,0,0
11987,-100,4,2,1,55,0,0
21073,-100,4,2,1,20,0,0
21244,-100,4,2,1,30,0,0
21587,-100,4,2,1,40,0,0
21930,-200,4,2,1,40,0,0
23301,-100,4,2,1,30,0,0
45244,-100,4,1,1,40,0,0
64959,-100,4,2,1,55,0,0
65130,-100,4,2,1,25,0,0
65816,-200,4,2,1,40,0,0
66159,-200,4,2,1,5,0,0
67187,-100,4,2,1,55,0,1
80044,-100,4,2,1,55,0,0
80730,-100,4,2,1,55,0,1
87759,-200,4,2,1,55,0,1
88101,-200,4,2,1,5,0,1
89130,-200,4,2,1,5,0,0

[Colours]
Combo1 : 79,0,157
Combo2 : 255,128,255
Combo3 : 0,98,196
Combo4 : 242,24,57
Combo5 : 255,192,0

[HitObjects]
72,88,1359,6,0,B|99:74|130:78|152:96,1,72,0|0,0:0|0:0,0:0:0:0:
136,232,1701,2,0,B|111:215|99:186|102:158,1,72,2|0,0:0|0:0,0:0:0:0:
232,104,2044,2,0,B|229:134|210:158|185:169,1,72,0|2,0:0|0:0,0:0:0:0:
240,248,2387,2,0,B|267:234|297:238|320:255,1,72,,,0:0:0:0:
352,168,2730,6,0,B|327:151|315:122|318:94,1,72,0|0,0:0|0:0,0:0:0:0:
440,192,3073,2,0,B|467:178|498:182|520:200,1,72,2|0,0:0|0:0,0:0:0:0:
376,264,3416,2,0,B|373:294|354:318|329:329,1,72,0|2,0:0|0:0,0:0:0:0:
256,360,3759,1,0,0:0:0:0:
168,336,3930,1,0,0:0:0:0:
136,248,4101,6,0,L|56:256,1,72,,,0:0:0:0:
208,192,4444,2,0,L|241:118,1,72,2|0,0:0|0:0,0:0:0:0:
224,280,4787,2,0,L|270:345,1,72,0|2,0:0|0:0,0:0:0:0:
360,360,5130,1,0,0:0:0:0:
440,312,5301,1,2,0:0:0:0:
448,216,5473,6,0,B|455:191|454:166|448:143,1,72,2|0,0:0|0:0,0:0:0:0:
336,24,5816,2,0,B|328:49|328:74|336:97,1,72,2|0,0:0|0:0,0:0:0:0:
496,64,6159,2,0,B|471:56|446:56|423:64,1,72,2|0,0:0|0:0,0:0:0:0:
288,184,6502,2,0,B|313:191|338:190|361:184,1,72,0|2,0:0|0:0,0:0:0:0:
216,120,6844,5,0,0:0:0:0:
192,208,7016,1,0,0:0:0:0:
248,280,7187,2,0,L|240:352,1,72,2|0,0:0|0:0,0:0:0:0:
416,312,7530,2,0,L|424:240,1,72,0|2,0:0|0:0,0:0:0:0:
368,160,7873,1,0,0:0:0:0:
272,152,8044,1,0,0:0:0:0:
192,208,8216,6,0,B|165:220|136:219|112:208,1,72,,,0:0:0:0:
120,72,8559,2,0,B|143:90|156:115|160:141,1,72,2|0,0:0|0:0,0:0:0:0:
32,208,8901,2,0,B|35:179|51:154|72:138,1,72,0|2,0:0|0:0,0:0:0:0:
224,64,9244,2,0,B|251:53|280:53|304:63,1,72,,,0:0:0:0:
352,136,9587,5,2,0:0:0:0:
272,216,9759,2,0,L|264:136,1,72,0|0,0:0|0:0,0:0:0:0:
360,144,10101,1,2,0:0:0:0:
264,224,10273,2,0,L|256:144,1,72,0|2,0:0|0:0,0:0:0:0:
368,152,10616,1,2,0:0:0:0:
256,232,10787,6,0,L|237:45,1,180,,,0:0:0:0:
440,232,11987,2,0,L|432:280,3,36,2|0|2|0,0:0|0:0|0:0|0:0,0:0:0:0:
464,312,12330,6,0,B|432:296|432:296|320:304,1,144,4|0,1:0|1:0,0:0:0:0:
248,352,12844,1,2,0:0:0:0:
169,298,13016,2,0,B|162:272|163:245|169:221,1,72,0|2,0:0|0:0,0:0:0:0:
241,167,13359,1,0,1:0:0:0:
386,255,13530,6,0,B|350:281|350:281|300:294|252:258,1,144,4|2,0:0|0:0,0:0:0:0:
316,118,14044,2,0,B|325:147|325:176|318:203,1,72,0|2,1:0|0:0,0:0:0:0:
156,206,14387,2,0,B|147:177|147:148|154:121,1,72,0|2,0:0|0:0,0:0:0:0:
217,77,14730,1,0,1:0:0:0:
235,161,14901,1,2,0:0:0:0:
126,50,15073,6,0,L|29:58,1,72,4|2,1:0|0:0,0:0:0:0:
34,188,15416,2,0,B|78:217|134:211|170:178,1,144,2|0,1:2|0:0,0:0:0:0:
262,224,15930,1,2,0:0:0:0:
262,224,16016,1,0,0:0:0:0:
262,224,16101,1,0,1:0:0:0:
254,121,16273,6,0,B|298:92|354:98|390:131,1,144,4|2,0:0|0:0,0:0:0:0:
443,213,16787,2,0,L|439:286,1,72,0|2,1:0|0:0,0:0:0:0:
317,358,17130,2,0,L|313:285,1,72,0|2,1:0|0:0,0:0:0:0:
297,180,17473,1,0,1:0:0:0:
209,211,17644,1,0,1:0:0:0:
209,211,17730,1,0,1:0:0:0:
209,211,17816,6,0,B|130:197|52:214,1,144,4|0,0:0|1:0,0:0:0:0:
91,126,18330,2,0,L|80:54,1,72,2|0,0:0|0:0,0:0:0:0:
153,5,18673,1,2,0:0:0:0:
153,5,18759,1,0,0:0:0:0:
153,5,18844,1,0,1:0:0:0:
167,90,19016,6,0,B|225:108|270:88|270:88|296:117,1,144,4|2,0:0|0:0,0:0:0:0:
203,182,19530,2,0,L|199:257,1,72,0|2,1:0|0:0,0:0:0:0:
291,350,19873,2,0,L|295:275,1,72,0|2,1:0|0:0,0:0:0:0:
398,195,20216,2,0,L|394:270,1,72,0|2,1:0|0:0,0:0:0:0:
471,137,20559,6,0,B|437:95|376:90|336:125,1,144,4|0,0:0|0:0,0:0:0:0:
302,205,21073,1,0,1:0:0:0:
222,245,21244,2,0,B|195:251|168:250|144:243,1,72,0|0,1:0|1:0,0:0:0:0:
306,298,21587,2,0,B|333:292|360:293|384:300,1,72,0|0,1:0|1:0,0:0:0:0:
452,348,21930,6,0,L|464:237,1,108,4|0,1:0|0:0,0:0:0:0:
463,240,22530,1,0,0:0:0:0:
463,240,22616,1,0,1:0:0:0:
414,158,22787,1,0,0:0:0:0:
370,240,22959,1,0,0:0:0:0:
501,163,23130,1,0,0:0:0:0:
501,163,23216,1,0,0:0:0:0:
501,163,23301,6,0,B|505:112|462:70|412:73,1,144,2|0,0:0|0:0,0:0:0:0:
326,112,23816,1,0,0:0:0:0:
243,71,23987,2,0,B|236:35|241:-1,1,72,0|0,0:0|1:0,0:0:0:0:
241,164,24330,2,0,B|248:200|243:236,1,72,0|0,0:0|1:0,0:0:0:0:
171,283,24673,6,0,B|221:266|271:271|315:290,1,144,2|0,0:0|0:0,0:0:0:0:
402,350,25187,2,0,B|415:276|403:203,1,144,2|0,0:0|1:0,0:0:0:0:
325,153,25701,2,0,L|253:155,1,72,0|0,0:0|1:0,0:0:0:0:
176,226,26044,6,0,B|139:190|86:184|43:205,2,144,2|0|0,0:0|0:0|0:0,0:0:0:0:
233,301,26901,1,0,1:0:0:0:
322,266,27073,2,0,B|365:262|406:266,1,72,0|0,0:0|1:0,0:0:0:0:
477,325,27416,6,0,B|468:252|474:182,1,144,2|0,0:0|0:0,0:0:0:0:
358,59,27930,2,0,B|367:132|361:202,1,144,2|0,0:0|1:0,0:0:0:0:
297,271,28444,1,0,0:0:0:0:
204,266,28616,1,0,1:0:0:0:
138,201,28787,6,0,B|89:176|29:197|5:244,1,144,2|0,0:0|0:0,0:0:0:0:
89,347,29301,2,0,B|97:323|98:298|94:275,1,72,,,0:0:0:0:
210,195,29644,2,0,B|202:219|201:244|205:267,1,72,0|0,1:0|0:0,0:0:0:0:
283,326,29987,1,0,1:0:0:0:
364,278,30159,6,0,L|513:282,1,144,2|0,0:0|0:0,0:0:0:0:
458,199,30673,2,0,B|441:128|459:57,1,144,2|0,0:0|1:0,0:0:0:0:
361,95,31187,2,0,B|335:100|310:97|287:89,1,72,0|0,0:0|1:0,0:0:0:0:
208,148,31530,6,0,B|135:131|62:144,1,144,2|0,0:0|0:0,0:0:0:0:
13,215,32044,1,0,0:0:0:0:
77,276,32216,2,0,L|73:347,1,72,0|0,0:0|1:0,0:0:0:0:
168,251,32559,2,0,L|172:322,1,72,0|0,0:0|1:0,0:0:0:0:
310,349,32901,6,0,B|343:307|342:250|314:210,1,144,2|0,0:0|0:0,0:0:0:0:
237,169,33416,1,0,0:0:0:0:
163,220,33587,2,0,L|88:216,1,72,2|0,0:0|1:0,0:0:0:0:
196,303,33930,2,0,L|121:299,1,72,0|0,0:0|1:0,0:0:0:0:
261,232,34273,6,0,B|289:188|288:134|263:93,1,144,2|0,0:0|0:0,0:0:0:0:
100,162,34787,1,0,0:0:0:0:
85,255,34959,2,0,B|84:298|91:338,1,72,0|0,0:0|1:0,0:0:0:0:
181,346,35301,1,0,0:0:0:0:
252,284,35473,1,0,1:0:0:0:
333,336,35644,6,0,L|487:333,1,144,2|0,0:0|0:0,0:0:0:0:
423,253,36159,2,0,B|405:204|406:153|423:108,1,144,0|0,0:0|1:0,0:0:0:0:
365,42,36673,1,0,0:0:0:0:
275,48,36844,1,0,1:0:0:0:
221,119,37016,6,0,B|169:131|118:127|72:110,1,144,2|0,0:0|0:0,0:0:0:0:
16,187,37530,1,0,0:0:0:0:
87,246,37701,2,0,L|80:320,1,72,0|0,0:0|1:0,0:0:0:0:
189,259,38044,2,0,L|182:185,1,72,0|0,0:0|1:0,0:0:0:0:
245,111,38387,6,0,B|292:79|351:85|391:117,1,144,2|0,0:0|0:0,0:0:0:0:
454,237,38901,2,0,B|407:269|348:263|308:231,1,144,2|0,0:0|1:0,0:0:0:0:
225,209,39416,1,0,0:0:0:0:
246,303,39587,1,0,1:0:0:0:
307,146,39759,6,0,B|334:103|334:51|312:10,2,144,2|0|0,0:0|0:0|0:0,0:0:0:0:
225,209,40616,2,0,L|78:205,1,144,0|0,1:0|1:0,0:0:0:0:
183,315,41130,6,0,B|230:338|285:321|312:281,1,144,2|0,0:0|0:0,0:0:0:0:
336,184,41644,1,0,0:0:0:0:
276,103,41816,2,0,B|267:64|272:26,1,72,2|0,0:0|1:0,0:0:0:0:
233,200,42159,2,0,B|242:239|237:277,1,72,0|0,0:0|1:0,0:0:0:0:
166,323,42501,6,0,B|237:304|308:319,1,144,2|0,0:0|0:0,0:0:0:0:
406,274,43016,2,0,B|427:226|427:175|412:130,1,144,2|0,0:0|1:0,0:0:0:0:
309,84,43530,2,0,L|222:89,1,72,0|0,0:0|1:0,0:0:0:0:
177,166,43873,6,0,B|134:136|79:141|41:171,1,144,2|0,0:0|0:0,0:0:0:0:
112,245,44387,1,0,0:0:0:0:
255,215,44559,2,0,B|266:190|268:163|262:138,1,72,2|0,0:0|1:0,0:0:0:0:
119,34,44901,2,0,B|108:59|106:86|112:111,1,72,4|0,0:0|0:0,0:0:0:0:
177,166,45244,5,0,0:0:0:0:
177,166,45587,1,0,0:0:0:0:
177,166,45930,1,0,0:0:0:0:
177,166,46273,1,0,0:0:0:0:
282,113,46616,5,0,0:0:0:0:
282,113,46959,1,0,0:0:0:0:
282,113,47302,1,0,0:0:0:0:
282,113,47645,1,0,0:0:0:0:
335,218,47987,5,0,0:0:0:0:
335,218,48330,1,0,0:0:0:0:
335,218,48673,1,0,0:0:0:0:
335,218,49016,1,0,0:0:0:0:
230,271,49359,5,0,0:0:0:0:
230,271,49702,1,0,0:0:0:0:
230,271,50045,1,0,0:0:0:0:
230,271,50387,2,0,L|156:266,1,72,0|0,0:0|2:0,0:0:0:0:
85,318,50730,5,0,0:0:0:0:
85,318,51073,1,0,0:0:0:0:
85,318,51416,1,0,0:0:0:0:
85,318,51759,1,0,0:0:0:0:
130,21,52101,5,0,0:0:0:0:
130,21,52444,1,0,0:0:0:0:
130,21,52787,1,0,0:0:0:0:
130,21,53130,1,0,0:0:0:0:
427,66,53473,5,0,0:0:0:0:
427,66,53816,1,0,0:0:0:0:
427,66,54159,1,0,0:0:0:0:
427,66,54502,1,0,0:0:0:0:
382,363,54844,5,0,0:0:0:0:
382,363,55187,1,0,0:0:0:0:
382,363,55530,1,0,0:0:0:0:
382,363,55873,2,0,L|456:358,1,72,0|0,0:0|2:0,0:0:0:0:
431,259,56216,6,0,B|385:236|332:245|297:275,1,144,4|0,0:2|0:0,0:0:0:0:
189,367,56901,2,0,B|212:321|203:268|173:233,1,144,,,0:0:0:0:
81,125,57587,6,0,B|127:148|180:139|215:109,1,144,,,0:0:0:0:
323,16,58273,2,0,B|300:62|309:115|339:151,1,144,,,0:0:0:0:
311,262,58959,6,0,B|357:239|410:253|441:289,1,144,,,0:0:0:0:
186,247,59644,2,0,B|209:293|195:346|159:377,1,144,,,0:0:0:0:
201,122,60330,6,0,B|155:145|102:131|71:95,1,144,,,0:0:0:0:
326,137,61016,2,0,B|303:91|317:38|353:7,1,144,,,0:0:0:0:
422,93,61701,5,4,0:0:0:0:
422,93,62044,1,0,0:0:0:0:
422,93,62387,1,0,0:0:0:0:
422,93,62730,1,0,0:0:0:0:
256,294,63073,5,4,0:2:0:0:
256,294,63416,1,0,0:0:0:0:
256,294,63759,1,0,0:0:0:0:
256,294,64102,1,0,0:0:0:0:
90,93,64444,5,4,0:0:0:0:
90,93,64787,1,0,0:0:0:0:
152,23,64959,2,0,B|178:14|205:14|229:21,1,72,0|0,1:0|1:0,0:0:0:0:
233,179,65301,2,0,B|207:188|180:188|156:181,1,72,0|0,1:0|1:0,0:0:0:0:
194,101,65644,1,0,1:0:0:0:
287,108,65816,6,0,L|279:254,1,144,2|0,0:0|0:0,0:0:0:0:
262,279,67187,6,0,B|183:295|106:276,1,144,4|0,1:0|1:0,0:0:0:0:
59,206,67701,1,2,0:0:0:0:
123,68,67873,2,0,L|128:140,1,72,0|2,0:0|0:0,0:0:0:0:
223,191,68216,2,0,L|228:119,1,72,0|2,1:0|0:0,0:0:0:0:
304,57,68559,5,0,0:0:0:0:
382,123,68730,2,0,B|422:129|461:119,1,72,2|0,0:0|1:0,0:0:0:0:
328,196,69073,2,0,B|293:180|256:179|223:191,1,108,2|2,0:0|0:0,0:0:0:0:
193,216,69416,2,0,B|218:202|247:201|272:210,1,72,0|0,0:0|1:0,0:0:0:0:
355,277,69759,1,2,0:0:0:0:
458,228,69930,6,0,L|461:84,1,144,0|0,0:0|1:0,0:0:0:0:
383,27,70444,1,2,0:0:0:0:
301,77,70616,2,0,B|265:81|230:73,1,72,0|2,0:0|0:0,0:0:0:0:
141,117,70959,2,0,B|105:113|70:121,1,72,0|2,1:0|0:0,0:0:0:0:
38,295,71301,5,0,0:0:0:0:
124,291,71473,1,2,0:0:0:0:
119,204,71644,1,0,1:0:0:0:
34,211,71816,1,2,0:0:0:0:
34,211,72159,1,2,0:0:0:0:
119,204,72331,1,0,1:0:0:0:
124,291,72501,1,2,0:0:0:0:
38,295,72673,6,0,L|48:147,1,144,4|0,0:0|1:0,0:0:0:0:
123,87,73187,1,2,0:0:0:0:
211,127,73359,2,0,B|247:132|282:125,1,72,0|2,0:0|0:0,0:0:0:0:
370,175,73701,1,0,1:0:0:0:
438,101,73873,6,0,L|432:29,2,72,2|0|2,0:0|0:0|0:0,0:0:0:0:
470,201,74387,1,0,1:0:0:0:
393,268,74559,2,0,B|307:287|223:263,1,144,2|2,0:0|0:0,0:0:0:0:
160,314,75073,1,0,1:0:0:0:
76,262,75244,1,2,0:0:0:0:
76,262,75330,1,0,1:0:0:0:
76,262,75416,6,0,L|71:118,1,144,4|0,0:0|1:0,0:0:0:0:
145,52,75930,1,0,0:0:0:0:
231,99,76101,2,0,L|308:92,1,72,0|0,1:0|0:0,0:0:0:0:
371,30,76444,1,0,1:0:0:0:
388,200,76616,6,0,B|344:226|289:215|258:179,1,144,2|0,0:0|0:0,0:0:0:0:
141,183,77130,2,0,L|145:146,3,36,2|0|2|0,1:2|0:0|0:0|0:0,0:0:0:0:
122,125,77473,2,0,L|118:88,3,36,2|0|2|0,1:2|0:0|0:0|0:0,0:0:0:0:
96,62,77816,2,0,L|99:26,2,36,0|0|0,1:0|1:0|0:0,0:0:0:0:
35,182,78159,6,0,B|51:232|49:282|33:327,1,144,4|0,0:0|1:0,0:0:0:0:
123,359,78673,1,2,0:0:0:0:
212,320,78844,2,0,B|258:313|302:322,1,72,0|2,0:0|0:0,0:0:0:0:
432,271,79187,2,0,B|386:278|342:269,1,72,0|2,1:0|1:2,0:0:0:0:
348,263,79444,1,0,1:0:0:0:
339,250,79530,6,0,L|333:171,1,72,0|0,1:0|1:0,0:0:0:0:
310,161,79787,2,0,L|305:216,1,36,0|0,1:0|1:0,0:0:0:0:
315,345,80044,1,0,1:0:0:0:
315,345,80387,1,0,1:0:0:0:
315,345,80730,6,0,B|242:356|171:344,1,144,4|2,0:0|0:0,0:0:0:0:
110,270,81244,2,0,L|108:197,1,72,0|2,1:0|0:0,0:0:0:0:
211,151,81587,2,0,L|213:224,1,72,0|2,0:0|0:0,0:0:0:0:
320,261,81930,2,0,L|318:188,1,72,0|2,1:0|0:0,0:0:0:0:
360,107,82273,6,0,B|383:94|408:91|431:97,1,72,0|2,0:0|0:0,0:0:0:0:
409,176,82616,1,0,1:0:0:0:
310,36,82787,2,0,B|356:10|406:5|453:16,1,144,4|2,0:0|0:0,0:0:0:0:
511,92,83301,1,0,1:0:0:0:
495,189,83473,1,2,0:0:0:0:
404,225,83644,6,0,L|317:222,1,72,4|2,0:0|0:0,0:0:0:0:
188,308,83987,2,0,L|259:310,1,72,0|2,1:0|0:0,0:0:0:0:
137,236,84330,2,0,B|101:257|85:299|94:339|118:365,1,144,0|0,0:0|1:0,0:0:0:0:
375,147,85016,6,0,B|419:120|428:62|397:22,1,144,2|0,0:0|1:0,0:0:0:0:
259,77,85530,2,0,L|330:76,1,72,2|0,0:0|0:0,0:0:0:0:
174,166,85873,2,0,L|103:167,1,72,2|0,0:0|1:0,0:0:0:0:
258,260,86216,2,0,L|329:259,1,72,2|0,0:0|0:0,0:0:0:0:
419,298,86559,5,0,0:0:0:0:
499,247,86730,2,0,B|510:208|503:169,1,72,0|0,1:0|0:0,0:0:0:0:
439,98,87073,1,0,1:0:0:0:
346,152,87244,2,0,L|294:149,1,36,0|0,1:0|1:0,0:0:0:0:
280,169,87416,2,0,L|228:166,3,36,0|0|0|0,1:0|0:0|0:0|0:0,0:0:0:0:
214,185,87759,6,0,B|163:165|106:221|139:293|199:299|231:270,1,216,4|0,0:0|0:0,0:0:0:0:
